Topic: Bad Brains - A Band in DC Documentary (2012)

Was looking for this for a while and I finally acquired a copy.... thought you guys may like it too! Not my Rip....


http://i1310.photobucket.com/albums/s644/cliffothebig/maxresdefault_zps99e9efa5.jpg



IMDB.com:

Bad Brains are one of the most important and influential American bands still working today. They melded punk and reggae into an innovative style that has yet to be copied. Their impact and influence can be heard in groups like Beastie Boys, No Doubt, Nirvana, Jane's Addiction and countless more. Despite the troubles of an eccentric front man they have stayed together for 30 years without ever reaching the level of success so many think they deserve. Using rare archival footage and original comic illustrations the film re-constructs Bad Brains' rich and complicated history.


Format                                   : MPEG-4
Format profile                           : Base Media / Version 2
Codec ID                                 : mp42
File size                                : 1.31 GiB
Duration                                 : 1h 44mn
Overall bit rate mode                    : Variable
Overall bit rate                         : 1 797 Kbps
Encoded date                             : UTC 2014-09-06 02:59:06
Tagged date                              : UTC 2014-09-06 02:59:06
gsst                                     : 0
gstd                                     : 6280463
gssd                                     : B32260085MM1411892865894563
gshh                                     : r2---sn-4gvoupxg-2qme.googlevideo.com

Video
ID                                       : 1
Format                                   : AVC
Format/Info                              : Advanced Video Codec
Format profile                           : High@L3.1
Format settings, CABAC                   : Yes
Format settings, ReFrames                : 1 frame
Codec ID                                 : avc1
Codec ID/Info                            : Advanced Video Coding
Duration                                 : 1h 44mn
Bit rate                                 : 1 603 Kbps
Maximum bit rate                         : 4 533 Kbps
Width                                    : 1 280 pixels
Height                                   : 720 pixels
Display aspect ratio                     : 16:9
Frame rate mode                          : Constant
Frame rate                               : 25.000 fps
Color space                              : YUV
Chroma subsampling                       : 4:2:0
Bit depth                                : 8 bits
Scan type                                : Progressive
Bits/(Pixel*Frame)                       : 0.070
Stream size                              : 1.17 GiB (89%)
Tagged date                              : UTC 2014-09-06 03:00:44

Audio
ID                                       : 2
Format                                   : AAC
Format/Info                              : Advanced Audio Codec
Format profile                           : LC
Codec ID                                 : 40
Duration                                 : 1h 44mn
Bit rate mode                            : Variable
Bit rate                                 : 192 Kbps
Maximum bit rate                         : 202 Kbps
Channel(s)                               : 2 channels
Channel positions                        : Front: L R
Sampling rate                            : 44.1 KHz
Compression mode                         : Lossy
Stream size                              : 144 MiB (11%)
Title                                    : IsoMedia File Produced by Google, 5-11-2011
Encoded date                             : UTC 2014-09-06 03:00:07
Tagged date                              : UTC 2014-09-06 03:00:44

Re: Bad Brains - A Band in DC Documentary (2012)

thanks

Re: Bad Brains - A Band in DC Documentary (2012)

TY

Re: Bad Brains - A Band in DC Documentary (2012)

thanks

Re: Bad Brains - A Band in DC Documentary (2012)

Thank you. Let's seed it!

Re: Bad Brains - A Band in DC Documentary (2012)

Thanks for posting this

Re: Bad Brains - A Band in DC Documentary (2012)

oi

Re: Bad Brains - A Band in DC Documentary (2012)

Thank you!

Re: Bad Brains - A Band in DC Documentary (2012)

..been looking for this, thanks!! please seed.. thanks!

Re: Bad Brains - A Band in DC Documentary (2012)

Hopefully I will get my new seed box online tomorrow and I'll reseed the stuff people have asked for.

Re: Bad Brains - A Band in DC Documentary (2012)

nice one

Re: Bad Brains - A Band in DC Documentary (2012)

cheers

Re: Bad Brains - A Band in DC Documentary (2012)

Thanks for this, but I need someone to please seed.

Re: Bad Brains - A Band in DC Documentary (2012)

theres a reseed for u

Thanks: daveaz1

15 (edited by daveaz 2015-11-11 04:24:19)

Re: Bad Brains - A Band in DC Documentary (2012)

Thanks! I just saw this and am trying now. No peers so far.

Re: Bad Brains - A Band in DC Documentary (2012)

Got it, thanks!

Re: Bad Brains - A Band in DC Documentary (2012)

I love documentaries...
thanks!!

Re: Bad Brains - A Band in DC Documentary (2012)

Been waiting years to see this thanks i really enjoyed it!

Re: Bad Brains - A Band in DC Documentary (2012)

thanks a bunch! i'll keep it seeding for a while....

Thanks: zerosquad1

Re: Bad Brains - A Band in DC Documentary (2012)

thx

Re: Bad Brains - A Band in DC Documentary (2012)

Thanks man