Topic: I'm Now! - The Story of Mudhoney (2012) Not My Rip

Not my rip

imdb:

This documentary tells the story of Mudhoney from their very beginnings, to following them on their recent world tour and everything in between. Complete with testimonials from friends, music industry veterans and musicians such as Pearl Jam's Stone Gossard and Jeff Ament, Sonic Youth's Kim Gordon and Thurston Moore, Soundgarden's Kim Thayil and Mudhoney themselves. This is the true story of the founding fathers of Grunge.

http://www.imdb.com/title/tt2492562/?ref_=ttpl_pl_tt


Format                                   : Matroska
Format version                           : Version 2
File size                                : 1.22 GiB
Duration                                 : 1h 41mn
Overall bit rate                         : 1 718 Kbps
Writing application                      : HandBrake 0.9.8
Writing library                          : libmkv 0.6.5

Video
ID                                       : 1
Format                                   : AVC
Format/Info                              : Advanced Video Codec
Format profile                           : High@L3.1
Format settings, CABAC                   : Yes
Format settings, ReFrames                : 9 frames
Codec ID                                 : V_MPEG4/ISO/AVC
Duration                                 : 1h 41mn
Bit rate                                 : 1 492 Kbps
Width                                    : 720 pixels
Height                                   : 480 pixels
Display aspect ratio                     : 16:9
Frame rate mode                          : Constant
Frame rate                               : 29.970 (30000/1001) fps
Standard                                 : NTSC
Color space                              : YUV
Chroma subsampling                       : 4:2:0
Bit depth                                : 8 bits
Scan type                                : Progressive
Bits/(Pixel*Frame)                       : 0.144
Stream size                              : 1.06 GiB (87%)
Writing library                          : x264 core 120
Encoding settings                        : cabac=1 / ref=9 / deblock=1:-2:-2 / analyse=0x3:0x133 / me=umh / subme=9 / psy=1 / psy_rd=1.00:0.00 / mixed_ref=1 / me_range=24 / chroma_me=1 / trellis=2 / 8x8dct=1 / cqm=0 / deadzone=21,11 / fast_pskip=0 / chroma_qp_offset=-2 / threads=3 / sliced_threads=0 / nr=0 / decimate=1 / interlaced=0 / bluray_compat=0 / constrained_intra=0 / bframes=6 / b_pyramid=2 / b_adapt=2 / b_bias=0 / direct=3 / weightb=1 / open_gop=0 / weightp=2 / keyint=300 / keyint_min=30 / scenecut=40 / intra_refresh=0 / rc_lookahead=50 / rc=crf / mbtree=1 / crf=20.8 / qcomp=0.60 / qpmin=3 / qpmax=69 / qpstep=4 / ip_ratio=1.40 / aq=1:1.20
Language                                 : English
Default                                  : Yes
Forced                                   : No
Color range                              : Limited
Color primaries                          : BT.601 NTSC
Transfer characteristics                 : BT.709
Matrix coefficients                      : BT.601

Audio
ID                                       : 2
Format                                   : AC-3
Format/Info                              : Audio Coding 3
Mode extension                           : CM (complete main)
Format settings, Endianness              : Big
Codec ID                                 : A_AC3
Duration                                 : 1h 41mn
Bit rate mode                            : Constant
Bit rate                                 : 192 Kbps
Channel(s)                               : 2 channels
Channel positions                        : Front: L R
Sampling rate                            : 48.0 KHz
Frame rate                               : 31.250 fps (1536 spf)
Compression mode                         : Lossy
Stream size                              : 140 MiB (11%)
Default                                  : Yes
Forced                                   : No

Menu
00:00:00.000                             : Chapter 1
00:11:48.708                             : Chapter 2
00:21:49.308                             : Chapter 3
00:30:47.345                             : Chapter 4
00:37:24.242                             : Chapter 5
00:47:25.843                             : Chapter 6
00:55:28.325                             : Chapter 7
01:09:12.648                             : Chapter 8
01:19:53.288                             : Chapter 9
01:26:23.178                             : Chapter 10
01:37:23.838                             : Chapter 11
01:40:17.011                             : Chapter 12

Re: I'm Now! - The Story of Mudhoney (2012) Not My Rip

thanks

Re: I'm Now! - The Story of Mudhoney (2012) Not My Rip

now i know i dont have this one lol

catch my punk radio show on sundays at 2pm GMT on www.rockindevilradio.com

Re: I'm Now! - The Story of Mudhoney (2012) Not My Rip

mel_the_bell wrote:

now i know i dont have this one lol

lol Enjoy! Its a good watch, I like a bit of Mudhoney....

Re: I'm Now! - The Story of Mudhoney (2012) Not My Rip

zerosquad wrote:
mel_the_bell wrote:

now i know i dont have this one lol

lol Enjoy! Its a good watch, I like a bit of Mudhoney....

touch me im sick wink

catch my punk radio show on sundays at 2pm GMT on www.rockindevilradio.com

Re: I'm Now! - The Story of Mudhoney (2012) Not My Rip

Thank you

7 (edited by sethabegg 2016-09-27 05:15:01)

Re: I'm Now! - The Story of Mudhoney (2012) Not My Rip

can someone please seed this bad boy?  thank u in advance.

(15 min later) so im not sure who is seeding this but thank u very much.  mudhoney is a trip, in a league of their own, weird and unique.

Re: I'm Now! - The Story of Mudhoney (2012) Not My Rip

been looking for this cheers mate

Re: I'm Now! - The Story of Mudhoney (2012) Not My Rip

sethabegg wrote:

can someone please seed this bad boy?  thank u in advance.

(15 min later) so im not sure who is seeding this but thank u very much.  mudhoney is a trip, in a league of their own, weird and unique.

I'm seeding it - sometimes my torrent pc goes down while i'm at work and I have to wait until I get home to reboot it (fucking windows) but it hasn't happened in a few days so I don't know why it temporarily stopped for ya