Topic: Punk Britannia Parts 1-3 (2012) Not my Rip

You've probably all seen this three part thing but just in case...

Not ripped by me....

http://www.imdb.com/title/tt2210236/

Format                                   : AVI
Format/Info                              : Audio Video Interleave
File size                                : 599 MiB
Duration                                 : 58mn 50s
Overall bit rate                         : 1 424 Kbps
Writing application                      : VirtualDubMod 1.5.10.2 (build 2540/release)
Writing library                          : VirtualDubMod build 2540/release

Video
ID                                       : 0
Format                                   : MPEG-4 Visual
Format profile                           : Advanced Simple@L5
Format settings, BVOP                    : 2
Format settings, QPel                    : No
Format settings, GMC                     : No warppoints
Format settings, Matrix                  : Default (H.263)
Muxing mode                              : Packed bitstream
Codec ID                                 : XVID
Codec ID/Hint                            : XviD
Duration                                 : 58mn 50s
Bit rate                                 : 1 255 Kbps
Width                                    : 704 pixels
Height                                   : 384 pixels
Display aspect ratio                     : 1.85:1
Frame rate                               : 25.000 fps
Color space                              : YUV
Chroma subsampling                       : 4:2:0
Bit depth                                : 8 bits
Scan type                                : Progressive
Compression mode                         : Lossy
Bits/(Pixel*Frame)                       : 0.186
Stream size                              : 528 MiB (88%)
Writing library                          : XviD 64

Audio
ID                                       : 1
Format                                   : MPEG Audio
Format version                           : Version 1
Format profile                           : Layer 3
Mode                                     : Joint stereo
Codec ID                                 : 55
Codec ID/Hint                            : MP3
Duration                                 : 58mn 50s
Bit rate mode                            : Constant
Bit rate                                 : 160 Kbps
Channel(s)                               : 2 channels
Sampling rate                            : 48.0 KHz
Compression mode                         : Lossy
Stream size                              : 67.3 MiB (11%)
Alignment                                : Aligned on interleaves
Interleave, duration                     : 40 ms (1.00 video frame)
Interleave, preload duration             : 504 ms

2 (edited by mel_the_bell 2016-06-18 19:11:36)

Re: Punk Britannia Parts 1-3 (2012) Not my Rip

cant remember if ive got this lol

i do have it

catch my punk radio show on sundays at 2pm GMT on www.rockindevilradio.com

Re: Punk Britannia Parts 1-3 (2012) Not my Rip

thanks

Re: Punk Britannia Parts 1-3 (2012) Not my Rip

thx