Topic: The Gits Movie (2005) Not my Rip

Not my Rip, bit of a tear jerker this one....

imdb:

The story of the promising, underground Seattle band, The Gits. Fronted by charismatic vocalist, Mia Zapata, and poised to explode onto the national music scene, a stranger came in and took it all away. A decade later, the legacy lives on.

http://www.imdb.com/title/tt0463028/?ref_=fn_al_tt_1

Complete name                            : D:\Torrents\The Gits Movie\The.Gits.Movie.avi
Format                                   : AVI
Format/Info                              : Audio Video Interleave
File size                                : 699 MiB
Duration                                 : 1h 20mn
Overall bit rate mode                    : Variable
Overall bit rate                         : 1 219 Kbps
Writing application                      : VirtualDubMod 1.5.4.1 (build 2178/release)
Writing library                          : VirtualDubMod build 2178/release

Video
ID                                       : 0
Format                                   : MPEG-4 Visual
Format profile                           : Advanced Simple@L5
Format settings, BVOP                    : 1
Format settings, QPel                    : No
Format settings, GMC                     : No warppoints
Format settings, Matrix                  : Custom
Codec ID                                 : XVID
Codec ID/Hint                            : XviD
Duration                                 : 1h 20mn
Bit rate                                 : 1 096 Kbps
Width                                    : 464 pixels
Height                                   : 352 pixels
Display aspect ratio                     : 4:3
Frame rate                               : 29.970 (29970/1000) fps
Color space                              : YUV
Chroma subsampling                       : 4:2:0
Bit depth                                : 8 bits
Scan type                                : Progressive
Compression mode                         : Lossy
Bits/(Pixel*Frame)                       : 0.224
Stream size                              : 629 MiB (90%)
Writing library                          : XviD 1.1.0 (UTC 2005-11-22)

Audio
ID                                       : 1
Format                                   : MPEG Audio
Format version                           : Version 1
Format profile                           : Layer 3
Mode                                     : Joint stereo
Mode extension                           : MS Stereo
Codec ID                                 : 55
Codec ID/Hint                            : MP3
Duration                                 : 1h 20mn
Bit rate mode                            : Variable
Bit rate                                 : 109 Kbps
Nominal bit rate                         : 128 Kbps
Channel(s)                               : 2 channels
Sampling rate                            : 48.0 KHz
Compression mode                         : Lossy
Stream size                              : 62.3 MiB (9%)
Alignment                                : Aligned on interleaves
Interleave, duration                     : 24 ms (0.72 video frame)
Interleave, preload duration             : 519 ms
Writing library                          : LAME3.97 
Encoding settings                        : -m j -V 4 -q 2 -lowpass 17 --abr 128
Language                                 : English

Re: The Gits Movie (2005) Not my Rip

Thanx !!

Re: The Gits Movie (2005) Not my Rip

Thanks for this, looking forward to it

I will reseed only for those who have a track record of saying thank you...

Re: The Gits Movie (2005) Not my Rip

Looks like my torrent box crashed, ill have to reboot it when I get home after work....

Re: The Gits Movie (2005) Not my Rip

thanks